#TITLE:Frenzy;
#SUBTITLE:;
#ARTIST:Racer X;
#TITLETRANSLIT:;
#SUBTITLETRANSLIT:;
#ARTISTTRANSLIT:;
#CREDIT:;
#BANNER:frenzy-banner.png;
#BACKGROUND:frenzy-bg.png;
#LYRICSPATH:;
#CDTITLE:;
#MUSIC:Racer X - Frenzy.mp3;
#OFFSET:0.580;
#SAMPLESTART:19.338;
#SAMPLELENGTH:12.000;
#SELECTABLE:YES;
#BPMS:0.000=289.000,153.000=280.000,252.000=270.000;
#STOPS:;
#BGCHANGES:;
// cache tags:
#FIRSTBEAT:96.000;
#LASTBEAT:467.000;
#SONGFILENAME:Songs/Music V.I.P ^_^/Frenzy [MelonMan]/Frenzy.sm;
#HASMUSIC:1;
#HASBANNER:1;
#MUSICLENGTH:105.216;
// end cache tags

//---------------dance-single - ----------------
#NOTES:
     dance-single:
     :
     Challenge:
     15:
     1.000,1.000,0.019,0.247,1.000,841.000,2.000,26.000,0.000,1.000:
0000
0000
0000
0000
,
0000
0000
0000
0000
,
0000
0000
0000
0000
,
0000
0000
0000
0000
,
0000
0000
0000
0000
,
0000
0000
0000
0000
,
0000
0000
0000
0000
,
0000
0000
0000
0000
,
0000
0000
0000
0000
,
0000
0000
0000
0000
,
0000
0000
0000
0000
,
0000
0000
0000
0000
,
0000
0000
0000
0000
,
0000
0000
0000
0000
,
0000
0000
0000
0000
,
0000
0000
0000
0000
,
0000
0000
0000
0000
,
0000
0000
0000
0000
,
0000
0000
0000
0000
,
0000
0000
0000
0000
,
0000
0000
0000
0000
,
0000
0000
0000
0000
,
0000
0000
0000
0000
,
0000
0000
0000
0000
,
1000
0100
0010
0001
1000
0100
0010
0001
,
2000
0000
0000
0000
,
0000
0000
3001
0000
,
0100
0010
1000
0100
,
0020
0000
0000
0000
,
0000
0000
0032
0000
,
1003
0100
0010
0001
1000
0100
0010
0001
,
1000
0100
0010
0001
1000
0100
0010
0001
,
1000
0001
0100
0010
1000
0001
0100
0020
,
0000
0000
0000
0000
,
0000
0000
0000
0000
0000
1030
0000
1000
,
0000
0000
0100
0000
0000
0010
0000
0000
,
0001
0000
2002
0000
,
0000
0000
0000
0000
,
3003
0000
0000
1000
0010
0100
0001
0010
0001
1000
0001
0100
,
0001
0010
0100
1000
0100
0010
0100
0010
0001
1000
0010
0100
,
0010
1000
0001
0100
0001
0010
0100
0010
0100
1000
0100
0010
,
0100
1000
0001
0100
0001
0010
0001
0010
0100
0010
0100
1000
,
0001
0100
0001
1000
0010
0100
0010
1000
0010
0100
0001
0100
,
0001
0010
0001
0010
0100
1000
0100
1000
0010
1000
0001
0010
,
0001
0100
0001
0010
0001
0100
0001
1000
0100
1000
0100
0010
,
0100
0010
0001
0010
0001
1000
0010
1000
0001
0100
0001
1000
,
0002
0000
0000
0000
0000
0000
0000
0000
0000
1003
0100
0010
,
0001
0010
0100
0010
0001
1000
0001
0100
0001
0010
0100
1000
,
0010
0000
0000
0000
0100
0000
0000
0000
0001
0000
0000
0000
0100
0000
0000
0000
0010
0000
0000
0000
0100
0000
0000
0000
0001
0000
0000
0000
0010
0000
0000
0000
0100
0000
0000
0000
1000
0000
0000
0100
0000
0000
0010
0000
0000
0001
0000
0000
,
1000
0010
0100
0010
1000
0100
0010
0001
1000
0001
1000
0001
,
1000
0000
0000
0100
0000
0000
0010
0000
0000
0001
0000
0000
1000
0000
0000
0000
0100
0000
0000
0000
0010
0000
0000
0000
0001
0000
0000
0000
1000
0000
0000
0000
0001
0000
0000
0000
0100
0000
0000
0000
0001
0000
0000
0000
1000
0000
0000
0000
,
0100
0000
1000
0000
0001
0000
0200
0000
0000
0000
0000
0000
0000
0000
0000
0000
0000
0000
0300
0000
0000
0001
0000
0000
,
0000
0000
0000
1000
0000
0000
0000
0000
0000
0000
0000
0000
0001
0000
0000
0000
1000
0000
0000
0000
0010
0000
0000
0000
0100
0000
0000
0000
0001
0000
0000
0000
0010
0000
0000
0000
0100
0000
0000
0000
0010
0000
0000
0000
0001
0000
0000
0000
,
1000
0000
0000
0000
0001
0000
0000
0000
0100
0000
0000
0000
0001
0000
0000
0000
0010
0000
0000
0000
0100
0000
0000
0000
1000
0000
0000
0000
0010
0000
0000
0000
0100
0000
0000
0000
0010
0000
0000
1000
0000
0000
0001
0000
0000
1000
0000
0000
,
0001
0000
0000
0000
1000
0000
0000
0000
0010
0000
0000
0000
1000
0000
0000
0000
0100
0000
0000
0000
1000
0000
0000
0000
0010
0000
0000
0000
1000
0000
0000
0000
0001
0000
0000
0000
0010
0000
0000
0001
0000
0000
0010
0000
0000
0001
0000
0000
,
1000
0100
0010
0100
1000
0001
0100
0010
1000
0010
0100
0001
,
0010
0100
1000
0100
1000
0001
0010
0001
1000
0010
0100
0010
,
1000
0100
0010
0001
1000
0100
1000
0010
0100
0001
1000
0001
,
0020
0000
0000
0000
0000
0000
0000
0000
0000
0030
0000
0001
,
0010
0100
0010
0001
1000
0010
1000
0100
0010
0001
1000
0100
,
0010
0000
0000
0000
0100
0000
0000
0000
1000
0000
0000
0000
0001
0000
0000
1000
0000
0000
0001
0000
0000
1000
0000
0000
0001
0000
0000
0000
0100
0000
0000
0000
0001
0000
0000
0000
0010
0000
0000
0000
0001
0000
0000
0000
1000
0000
0000
0000
,
0100
0000
0000
0000
1000
0000
0000
0000
0010
0000
0000
0000
1000
0000
0000
0100
0000
0000
0010
0000
0000
0001
0000
0000
1000
0000
0000
0010
0000
0000
1000
0000
0000
0100
0000
0000
1000
0000
0000
0000
0100
0000
0000
0000
1000
0000
0000
0000
,
0001
0010
0100
1000
0100
1000
0200
0000
0000
0000
0000
0000
,
1300
0000
0000
0000
0000
0000
0000
0000
1000
0000
0000
0000
0000
0100
0000
0000
0000
0000
0010
0000
0000
0000
0000
0001
0000
0000
0000
0000
1000
0000
0000
0000
0000
0100
0000
0000
0000
0000
0010
0000
0000
0000
0000
0001
0000
0000
0000
0000
,
1000
0000
0000
0000
0000
0100
0000
0000
0000
0000
0010
0000
0000
0000
0000
0001
0000
0000
0000
0000
1000
0000
0000
0000
0000
0100
0000
0000
0000
0000
0010
0000
0000
0000
0000
0001
0000
0000
0000
0000
1000
0000
0000
0000
0000
0100
0000
0000
,
0000
0000
0010
0000
0000
0000
0000
0001
0000
0000
0000
0000
1000
0000
0000
0000
0000
0100
0000
0000
0000
0000
0010
0000
0000
0000
0000
0001
0000
0000
0000
0000
1000
0000
0000
0000
0000
0100
0000
0000
0000
0000
0010
0000
0000
0000
0000
0001
,
0000
0000
0000
0000
1000
0000
0000
0000
0000
0100
0000
0000
0000
0000
0010
0000
0000
0000
0000
0001
0000
0000
0000
0000
1000
0000
0000
0000
0000
0100
0000
0000
0000
0000
0010
0000
0000
0000
0000
0001
0000
0000
0000
0000
1000
0000
0000
0000
,
0001
1000
0010
0100
0001
0010
0100
1000
0100
0010
0100
1000
,
0200
0000
0000
0000
,
1300
0010
1000
0100
0010
0001
0010
0100
0010
0001
0100
0010
1000
0010
0100
0001
,
0100
0000
0000
0010
0000
0000
1000
0000
0000
0100
0000
0000
0010
0000
0000
0001
0000
0000
0010
0000
0000
0100
0000
0000
0010
0000
0000
0000
0001
0000
0000
0000
0100
0000
0000
0000
0010
0000
0000
0000
1000
0000
0000
0000
0100
0000
0000
0000
,
0010
0000
0000
0000
0001
0000
0000
0000
0010
0000
0000
0000
0100
0000
0000
0000
0010
0000
0000
0000
0001
0000
0000
0000
0010
0000
0000
0000
0000
0000
0000
0000
0000
0100
0000
0000
0000
0000
0000
0000
0000
0000
1000
0000
0000
0000
0000
0000
,
0000
0001
0000
0000
1000
0000
0000
0000
0002
0000
0000
0000
0000
0000
0000
0000
,
0000
0000
0000
0000
,
0000
0000
0000
0000
0000
0000
0000
0000
1003
0100
0010
0100
1000
0100
0010
0001
,
0010
0100
1000
0100
0010
0001
0010
0100
1000
0100
0010
0001
0010
0100
1000
0100
,
0010
0001
0100
0010
1000
0010
0100
0001
0100
0010
1000
0100
0010
0001
1000
0100
,
0010
0100
1000
0001
0100
0010
0100
0001
0100
0010
1000
0010
0100
0001
0010
0001
,
1000
0010
1000
0001
0010
0001
0100
0010
0100
0001
0100
0001
1000
0010
1000
0010
,
0100
0001
0010
0100
0010
0001
1000
0001
1000
0001
1000
0100
0010
0001
1000
0001
,
1000
0010
1000
0010
0100
0010
0100
0001
0010
0100
1000
0010
0100
0000
0001
0000
,
1000
0010
0100
0001
0010
0100
1000
0100
0010
0100
1000
0001
,
1000
0010
1000
0002
0000
0000
0000
0000
0000
0000
0000
0000
,
1003
0100
0010
0001
0010
0001
0100
0010
1000
0010
1000
0100
,
0010
0001
0010
0100
0010
0001
0010
0100
1000
0001
0010
0100
,
1000
0100
0010
0001
0100
0010
0100
0001
0010
0001
1000
0100
,
1000
0001
0010
0001
1000
0010
1000
0001
0100
0010
1000
0100
,
1000
0100
0010
0100
0010
0001
0010
0100
1000
0010
0100
0010
,
1000
0100
1000
0001
0100
0001
0100
0001
0010
0100
1000
0001
,
1000
0100
0010
0001
1000
0001
0100
0010
1000
0100
0010
0100
1000
0001
1000
0001
,
1000
0010
1000
0010
1000
0100
1000
0100
0010
0001
0010
0001
0100
0001
0100
0010
,
1000
0010
1000
0100
0010
0001
0010
0100
0010
0001
1000
0010
1000
0100
0010
0100
,
1000
0001
1000
0001
1000
0001
0100
0010
1000
0010
0100
0001
0010
0100
0010
0001
,
0010
0100
1000
0001
1000
0001
1000
0010
2000
0000
0000
0000
0000
0000
0000
0000
,
3001
0000
0000
0010
0000
0000
0100
0000
0000
1000
0000
0000
0100
0000
0000
0010
0000
0000
0001
0000
0000
1000
0000
0000
0010
0000
0000
1000
0000
0000
0001
0000
,
0000
1000
0000
0000
0001
0000
0000
0010
0000
0000
0100
0000
0000
1000
0000
0000
0001
0000
0000
0000
0010
0000
0000
0100
0000
0000
1000
0000
0000
0001
0000
0000
,
0010
0000
0000
0000
0100
0000
0000
0000
1000
0000
0000
0000
0001
0000
0000
1000
0000
0000
0001
0000
0000
0100
0000
0000
0010
0000
0000
0000
1000
0000
0000
0000
,
0001
0010
0100
1000
0001
0100
0010
1000
,
0001
0020
0000
0000
0000
0000
0000
0000
,
0000
0000
0032
0000
,
2003
0000
3200
0000
0000
0320
0000
0000
,
0000
0000
0000
0000
0000
0000
0000
0000
0031
0000
0000
1000
0000
0000
0001
0000
,
1000
0000
0001
0000
0100
0000
0001
0000
1000
0000
0000
0000
0000
0100
0000
0000
,
0010
0000
0000
0001
0000
0000
2000
0000
0000
0000
0000
0000
0000
0000
0000
0000
,
0000
0000
0000
0000
3002
0000
0000
0000
0000
0000
0000
0000
1003
0000
0000
0001
,
0000
0000
0010
0100
1000
0001
0100
0010
1000
0010
0100
0001
,
0100
0001
0100
0010
1000
0100
0010
0100
1000
0001
0100
0001
0010
0100
1000
0100
,
0010
0100
1000
0001
0100
0001
0100
0001
0010
0100
0010
0100
1000
0100
2000
0000
,
0000
0000
0000
0000
0000
0000
0000
0000
0000
0000
0000
0000
0000
0000
0000
0000
0000
0000
0000
0000
0000
0000
0000
0000
3000
0000
0000
0000
0000
0000
0001
0000
0000
0000
0000
0100
0000
0000
0000
0000
0010
0000
0000
0000
0000
1000
0000
0000
,
0000
0000
0001
0000
0000
0000
0000
0100
0000
0000
0000
0000
0010
0000
0000
0000
0000
1000
0000
0000
0000
0000
0100
0000
0000
0000
0000
0010
0000
0000
0000
0000
0001
0000
0000
0000
0000
1000
0000
0000
0000
0000
0001
0000
0000
0000
0000
0100
,
0000
0000
0000
0000
0001
0000
0000
0000
0000
0010
0000
0000
0100
0000
0000
1000
0000
0000
0100
0000
0000
1000
0000
0000
0100
0000
0000
1000
0000
0000
0100
0000
0000
1000
0000
0000
0001
0000
0000
0100
0000
0000
0001
0000
0000
0100
0000
0000
,
0001
0000
0000
0100
0000
0000
0001
0000
0000
0000
0000
1000
0000
0000
0000
0000
0100
0000
0000
0000
0000
0010
0000
0000
0000
0000
0100
0000
0000
0000
0000
1000
0000
0000
0000
0000
0001
0000
0000
0000
0000
1000
0000
0000
0000
0000
0000
0001
,
0000
0010
0100
1000
0100
0010
0001
1000
0010
0001
0010
1000
,
0001
1000
0010
1000
0010
1000
0100
0010
0100
0010
0001
1000
0010
1000
0200
0000
,
0000
0000
0000
0020
,
0000
0000
2332
0000
,
0000
0000
0000
3003
;
